Free Downloads


HTTP://WWW.CLICKFORLIKE.COM
Search
 
 

Display results as :
 


Rechercher Advanced Search

Odgovaram.com kvizovi

Latest topics
PantaDownload on Facebook
September 2017
MonTueWedThuFriSatSun
    123
45678910
11121314151617
18192021222324
252627282930 

Calendar Calendar

Affiliates
cena po dogovoru


The Giant Mechanical Man (2012) 576p BDRip x264 AC3-MeRCuRY

View previous topic View next topic Go down

The Giant Mechanical Man (2012) 576p BDRip x264 AC3-MeRCuRY

Post by Admin on 2013-01-27, 11:20






The Giant Mechanical Man (2012) 576p BDRip x264 AC3-MeRCuRY

The Giant Mechanical Man (2012)
Genre: Comedy | Drama | Romance
Directed By: Lee Kirk
Cast: Jenna Fischer, Chris Messina, Malin Akerman
Country: USA
Original Language: English
Storyline: An offbeat romantic comedy about a silver-painted street performer and the soft spoken zoo worker who falls for him.
6.1/101,429 votes
IMDB: [You must be registered and logged in to see this link.]

Info
General
Complete name : The.Giant.Mechanical.Man.2012.576p.BDRip.x264.AC3-MeRCuRY.mkv
Format : Matroska
Format version : Version 4 / Version 2
File size : 1.63 GiB
Duration : 1h 29mn
Overall bit rate : 2 600 Kbps
Encoded date : UTC 2010-02-22 21:41:31
Writing application : mkvmerge v5.9.0 ('On The Loose') built on Dec 9 2012 15:37:01
Writing library : libebml v1.3.0 + libmatroska v1.4.0

Video
ID : 1
Format : AVC
Format/Info : Advanced Video Codec
Format profile : High@L4.1
Format settings, CABAC : Yes
Format settings, ReFrames : 4 frames
Muxing mode : Header stripping
Codec ID : V_MPEG4/ISO/AVC
Duration : 1h 29mn
Bit rate : 2 224 Kbps
Width : 1 024 pixels
Height : 560 pixels
Display aspect ratio : 16:9
Frame rate : 24.000 fps
Color space : YUV
Chroma subsampling : 4:2:0
Bit depth : 8 bits
Scan type : Progressive
Bits/(Pixel*Frame) : 0.162
Stream size : 1.35 GiB (83%)
Default : Yes
Forced : No

Audio
ID : 2
Format : AC-3
Format/Info : Audio Coding 3
Mode extension : CM (complete main)
Muxing mode : Header stripping
Codec ID : A_AC3
Duration : 1h 29mn
Bit rate mode : Constant
Bit rate : 384 Kbps
Channel(s) : 6 channels
Channel positions : Front: L C R, Side: L R, LFE
Sampling rate : 48.0 KHz
Bit depth : 16 bits
Compression mode : Lossy
Stream size : 246 MiB (15%)
Title : HDLeech.Org - MeRCuRY
Language : English
Default : Yes
Forced : No



Screens






DOWNLOAD:



[You must be registered and logged in to see this link.]
[You must be registered and logged in to see this link.]


[You must be registered and logged in to see this link.]
[You must be registered and logged in to see this link.]



Download single link

[You must be registered and logged in to see this link.]
avatar
Admin
Admin

Posts : 573
Join date : 2009-07-11
Age : 24
Location : Leskovac Serbia

View user profile http://pantadownloads.motion-forum.net

Back to top Go down

View previous topic View next topic Back to top

- Similar topics

 
Permissions in this forum:
You cannot reply to topics in this forum