Free Downloads


HTTP://WWW.CLICKFORLIKE.COM
Search
 
 

Display results as :
 


Rechercher Advanced Search

Odgovaram.com kvizovi

Latest topics
PantaDownload on Facebook
November 2017
MonTueWedThuFriSatSun
  12345
6789101112
13141516171819
20212223242526
27282930   

Calendar Calendar

Affiliates
cena po dogovoru


For A Good Time Call 2012 LiMiTED DVDRip XviD AC3-eXceSs

View previous topic View next topic Go down

For A Good Time Call 2012 LiMiTED DVDRip XviD AC3-eXceSs

Post by Admin on 2013-01-27, 11:28






For A Good Time Call 2012 LiMiTED DVDRip XviD AC3-eXceSs

For a Good Time, Call... (2012)
Genre: Comedy
Directed By: Jamie Travis
Cast: Lauren Miller, James Wolk, Ari Graynor
Country: USA
Original Language: English
Storyline: Former college frenemies Lauren and Katie move into a fabulous Gramercy Park apartment, and in order to make ends meet, the unlikely pair start a phone sex line together.
5.8/102,614 votes
IMDB: [You must be registered and logged in to see this link.]

Info
General
Complete name : excess-xvid-fagtc.avi
Format : AVI
Format/Info : Audio Video Interleave
File size : 1.66 GiB
Duration : 1h 25mn
Overall bit rate : 2 796 Kbps
Writing application : VirtualDubMod 1.5.10.2 (build 2540/release)
Writing library : VirtualDubMod build 2540/release

Video
ID : 0
Format : MPEG-4 Visual
Format profile : Advanced Simple@L5
Format settings, BVOP : 2
Format settings, QPel : No
Format settings, GMC : No warppoints
Format settings, Matrix : Default (H.263)
Muxing mode : Packed bitstream
Codec ID : XVID
Codec ID/Hint : XviD
Duration : 1h 25mn
Bit rate : 2 338 Kbps
Width : 672 pixels
Height : 272 pixels
Display aspect ratio : 2.471
Frame rate : 23.976 fps
Color space : YUV
Chroma subsampling : 4:2:0
Bit depth : 8 bits
Scan type : Progressive
Compression mode : Lossy
Bits/(Pixel*Frame) : 0.534
Stream size : 1.39 GiB (84%)
Writing library : XviD 1.2.1 (UTC 2008-12-04)

Audio
ID : 1
Format : AC-3
Format/Info : Audio Coding 3
Mode extension : CM (complete main)
Codec ID : 2000
Duration : 1h 25mn
Bit rate mode : Constant
Bit rate : 448 Kbps
Channel(s) : 6 channels
Channel positions : Front: L C R, Side: L R, LFE
Sampling rate : 48.0 KHz
Bit depth : 16 bits
Compression mode : Lossy
Stream size : 273 MiB (16%)
Alignment : Split accross interleaves
Interleave, duration : 42 ms (1.00 video frame)
Interleave, preload duration : 500 ms


Screens






DOWNLOAD:


[You must be registered and logged in to see this link.]
[You must be registered and logged in to see this link.]


[You must be registered and logged in to see this link.]
[You must be registered and logged in to see this link.]



Download single link

[You must be registered and logged in to see this link.]
avatar
Admin
Admin

Posts : 573
Join date : 2009-07-11
Age : 24
Location : Leskovac Serbia

View user profile http://pantadownloads.motion-forum.net

Back to top Go down

View previous topic View next topic Back to top

- Similar topics

 
Permissions in this forum:
You cannot reply to topics in this forum